<?xml version="1.0" standalone="no"?>
<!DOCTYPE svg PUBLIC "-//W3C//DTD SVG 1.1//EN" "http://www.w3.org/Graphics/SVG/1.1/DTD/svg11.dtd" >
<svg xmlns="http://www.w3.org/2000/svg">
  <metadata>Created by iconfont</metadata>
  <defs>
  <font id="iconfont" horiz-adv-x="1024">
    <font-face
      font-family="iconfont"
      font-weight="400"
      font-stretch="normal"
      units-per-em="1024"
      ascent="896"
      descent="-128"
    />
      <missing-glyph />
      
      <glyph glyph-name="check" unicode="&#58886;" d="M512 896C229.278476 896 0 666.721524 0 384S229.278476-128 512-128 1024 101.278476 1024 384 794.721524 896 512 896z m258.633143-382.780952L460.312381 202.99581a36.864 36.864 0 0 0-51.785143 0L253.366857 358.15619a36.815238 36.815238 0 0 0 0 51.785143 36.815238 36.815238 0 0 0 51.785143 0l129.365333-129.219047 284.330667 284.281904a36.815238 36.815238 0 0 0 51.785143 0c14.140952-14.238476 14.140952-37.449143 0-51.73638z"  horiz-adv-x="1024" />
      
      <glyph glyph-name="claude" unicode="&#58885;" d="M761.728 654.464a317.44 317.44 0 0 1-104.704 83.2A310.72 310.72 0 0 1 520.96 768a306.752 306.752 0 0 1-214.656-85.76 289.088 289.088 0 0 1-88.96-199.36c-57.6 0-112.576-21.44-153.152-61.824A205.568 205.568 0 0 1 0 273.408c0-55.488 22.272-108.48 64.128-147.584A221.184 221.184 0 0 1 217.28 64H435.84a33.216 33.216 0 0 1 34.048 32.768 33.216 33.216 0 0 1-34.048 32.832H217.28a148.352 148.352 0 0 0-103.424 41.6 140.032 140.032 0 0 0-43.2 99.712c0 37.824 15.744 73.152 43.2 99.648a150.72 150.72 0 0 0 103.424 41.6h35.328c9.152 0 18.304 3.84 26.176 11.392a37.696 37.696 0 0 1 9.152 25.28c-1.28 7.552-1.28 15.104-1.28 22.656a225.28 225.28 0 0 0 68.032 160.256c44.48 42.88 103.424 65.6 166.208 65.6 36.672 0 72-7.552 104.704-23.936 31.424-15.168 58.88-37.888 79.872-64.384a33.344 33.344 0 0 1 27.52-12.608c7.808 0 14.336 2.56 20.928 7.552a31.744 31.744 0 0 1 13.056 22.72c2.56 12.608 0 21.44-5.248 27.776zM936.96 481.472c0 2.56-1.28 5.12-2.624 8.96l-1.28 2.496A38.4 38.4 0 0 1 903.936 512H566.592a37.44 37.44 0 0 1-32.896-19.072l-1.344-3.84c-1.28-2.56-1.28-5.12-2.624-7.616l-68.544-232.704c10.56 2.56 21.12 5.12 31.616 5.12h481.088c10.496 0 21.12-2.56 31.616-5.12L936.96 481.472z m39.552-251.776H495.36c-26.368 0-47.424-20.352-47.424-44.48 0-24.128 21.12-57.216 47.424-57.216h481.088c26.368 0 47.424 31.808 47.424 57.216 1.28 24.128-21.12 44.48-47.424 44.48z m-48.768-75.008c-14.528 0-26.368 11.456-26.368 24.192 0 13.952 11.84 24.128 26.368 24.128 14.464 0 26.368-11.456 26.368-24.128 0-12.736-11.904-24.192-26.368-24.192z"  horiz-adv-x="1024" />
      
      <glyph glyph-name="folder" unicode="&#58884;" d="M908.80064 700.544H566.65664L453.63264 802.56A113.024 113.024 0 0 1 377.85664 832H115.20064a113.28 113.28 0 0 1-81.408-34.88A121.024 121.024 0 0 1 0.00064 713.024v-658.048c0-31.552 12.16-61.824 33.728-84.16A113.28 113.28 0 0 1 115.13664-64h793.728a113.28 113.28 0 0 1 81.408 34.816c21.568 22.4 33.728 52.608 33.728 84.16V581.568c0 31.552-12.16 61.824-33.728 84.096a113.28 113.28 0 0 1-81.408 34.88zM115.20064 752.64h262.656a37.696 37.696 0 0 0 25.6-9.792l123.52-112c7.04-6.4 16.128-9.92 25.6-9.856H908.80064a37.76 37.76 0 0 0 27.136-11.584 40.32 40.32 0 0 0 11.2-28.032v-71.68H76.80064V713.024a40.32 40.32 0 0 0 11.2 28.032 37.76 37.76 0 0 0 27.136 11.648z m793.6-737.408H115.20064a37.76 37.76 0 0 0-27.2 11.648 40.32 40.32 0 0 0-11.264 28.032V430.464H947.20064v-375.488a40.32 40.32 0 0 0-11.2-28.032 37.76 37.76 0 0 0-27.136-11.648z"  horiz-adv-x="1024" />
      
      <glyph glyph-name="camera" unicode="&#58883;" d="M614.4 756.352l87.744-113.472h248.704v-567.232H73.152V642.88h230.4l87.744 113.472H614.4zM649.152 832H356.48L268.8 718.528H73.152C32.896 718.528 0 684.48 0 642.88v-567.232C0 34.048 32.896 0 73.152 0h877.696c40.256 0 73.152 34.048 73.152 75.648V642.88c0 41.6-32.896 75.648-73.152 75.648h-213.952L649.152 832zM512 605.12c-121.6 0-219.456-101.184-219.456-226.944 0-125.76 97.856-226.88 219.456-226.88s219.456 101.12 219.456 226.88C731.456 503.936 633.6 605.12 512 605.12z m0-378.24c-80.448 0-146.304 68.096-146.304 151.296 0 83.2 65.856 151.296 146.304 151.296 80.448 0 146.304-68.096 146.304-151.296 0-83.2-65.856-151.296-146.304-151.296z"  horiz-adv-x="1024" />
      
      <glyph glyph-name="picture" unicode="&#58882;" d="M128 640.064V0h896.256V640.064H128z m832.256-533.504l-128 213.44-145.344-120.96L576.192 384 192 64V576h768.192v-469.504zM256 416.064a96 96 0 1 1 192 0 96 96 0 0 1-192 0zM896.192 768H0V128h64V704.192h832.192v64z"  horiz-adv-x="1024" />
      
      <glyph glyph-name="drawing" unicode="&#58881;" d="M881.459734 647.280561c-11.250773 14.127391-37.332111 17.515408-52.162676 6.776034-14.830565-10.739375-18.346431-35.606141-7.670982-49.222134 44.42777-59.897583 66.290068-134.497881 66.290068-222.714171 0-53.121549-11.250773-102.279757-33.113072-148.113874-14.830565 3.388017-26.081338 3.388017-40.911903 3.388017-100.106313 0-181.226945-70.636957-181.226945-155.465231 0-14.127391 3.515867-31.6428 7.670982-45.770191-44.42777-17.579333-88.855539-28.318708-136.799176-28.318708a36.309314 36.309314 0 0 1-37.332111-35.606141c0-18.090732 18.346431-35.606141 37.332111-35.60614 70.445183 3.388017 136.799175 17.515408 199.573377 49.733532 11.250773 3.388017 14.830565 14.127391 18.410356 21.478749a37.076412 37.076412 0 0 1-3.579791 28.254783 65.011571 65.011571 0 0 0-14.830565 42.446099c0 45.770191 47.943636 84.764349 107.265896 84.764349 14.76664 0 29.597205-3.388017 44.427769-7.287433 18.346431-7.415282 37.268187 0 47.943636 17.515409a418.068508 418.068508 0 0 1 55.678543 208.58678c4.155115 102.919006-21.286975 194.459389-76.965517 265.160271zM103.686104 170.145493c18.346431 10.739375 26.017413 31.6428 14.76664 45.770191-29.597205 56.509566-44.42777 109.69504-44.42777 166.204606 0 208.58678 177.711078 378.243328 396.33406 378.243328 26.017413 0 59.19441-3.388017 77.604766-6.776034 18.346431-3.451942 40.847978 10.739375 44.42777 28.254783 3.515867 17.515408-11.314698 38.994157-29.66113 42.382174A782.12052 782.12052 0 0 1 470.359034 831.575899C210.82415 831.575899 0 630.340476 0 382.695613c0-70.700882 14.830565-130.598465 52.098751-197.847405 7.670982-10.739375 22.565471-17.579333 33.240922-17.579333 7.670982-0.511399 11.186848-0.511399 18.346431 2.876618zM138.97262 475.194869a54.97537 54.97537 0 0 1 55.294994-54.911445 54.97537 54.97537 0 0 1 55.294994 54.911445 54.97537 54.97537 0 0 1-55.294994 54.84752 54.97537 54.97537 0 0 1-55.294994-54.84752zM248.923359 639.801354c0-20.455951 16.556536-36.756788 37.076413-36.756788 20.647726 0 37.076412 16.300836 37.076412 36.756788a36.628938 36.628938 0 0 1-37.076412 36.181464 37.076412 37.076412 0 0 1-37.076413-36.181464z m235.371292-474.641999l341.806164 635.157293c11.186848 29.213656 3.579792 65.970443-25.889563 84.1251-29.40543 18.090732-66.481842 14.574865-88.216291-14.63879L263.689999 303.556651s0-3.515867-3.515866-3.515866c-11.186848-18.090732-14.702715-40.272654-11.186849-58.363387 0-3.515867 3.515867-7.607057 3.515867-11.122924-47.624012-3.515867-117.621721-29.149731-132.324436-102.151907-11.186848-51.395578 3.515867-76.454119 11.122924-95.184099 0-3.451942 3.579792-7.543132 3.579791-3.451942l-3.579791-3.515867c-18.218582-25.697789-37.076412-29.213656-37.076413-29.213656a39.313782 39.313782 0 0 1-29.40543-29.14973 35.158667 35.158667 0 0 1 14.702715-36.820713c37.076412-25.697789 102.982931-58.363387 165.373583-58.363387 47.624012 0 95.887273 18.090732 135.840303 61.879254 62.390652 73.002177 51.203804 182.697217 51.203803 189.728949a100.362012 100.362012 0 0 1 52.418376 40.911903z m-161.729866 95.184099l404.708215 514.33933-305.305076-572.766642c-3.579792-3.451942-7.670982-7.543132-7.670982-3.451941l-91.796082 54.336121v7.543132z m3.515866-277.881316c-44.108145-51.395578-106.498797-40.272654-150.606942-22.181922 7.670982 7.607057 11.122924 14.574865 18.218582 22.181922 25.889564 36.756788 11.186848 65.970443 3.515866 80.545309-7.670982 11.122924-11.186848 25.697789-7.670982 50.820254 7.670982 32.665598 51.203804 40.272654 70.061634 43.788521l102.919006-54.911444c0.639248-28.574407-2.940543-83.485852-36.437164-120.24264z"  horiz-adv-x="1024" />
      
      <glyph glyph-name="a-Frame3" unicode="&#58934;" d="M838.826667 739.726222c98.133333-98.247111 147.342222-216.746667 147.342222-355.726222 0-138.865778-49.208889-257.479111-147.342222-355.669333-98.247111-98.247111-216.860444-147.342222-355.726223-147.342223-138.865778 0-257.479111 49.095111-355.726222 147.342223a39.822222 39.822222 0 1 0 56.149334 56.149333c82.716444-82.716444 182.613333-124.131556 299.52-124.131556 116.963556 0 216.860444 41.415111 299.576888 124.131556C865.28 167.253333 906.695111 267.036444 906.695111 384c0 117.020444-41.415111 216.860444-124.074667 299.52-82.716444 82.773333-182.613333 124.188444-299.52 124.188444-117.020444 0-216.860444-41.415111-299.52-124.188444a39.765333 39.765333 0 0 0-56.206222 56.206222C225.564444 837.973333 344.177778 887.068444 483.100444 887.068444c138.865778 0 257.479111-49.095111 355.726223-147.342222zM542.549333 583.168l144.725334-173.681778a39.708444 39.708444 0 0 0 0-50.858666l-144.725334-173.795556a39.651556 39.651556 0 0 0-70.087111 21.788444 39.708444 39.708444 0 0 0 8.988445 29.013334l90.567111 108.657778h-494.364445a39.765333 39.765333 0 1 0 0 79.530666h494.364445L481.450667 532.366222a39.708444 39.708444 0 1 0 61.041777 50.858667z"  horiz-adv-x="1024" />
      
      <glyph glyph-name="carme" unicode="&#58931;" d="M822.857143 347.428571c0-100.571429-82.285714-182.857143-182.857143-182.857142s-182.857143 82.285714-182.857143 182.857142 82.285714 182.857143 182.857143 182.857143 182.857143-82.285714 182.857143-182.857143zM1280 667.428571V-18.285714a91.696762 91.696762 0 0 0-91.428571-91.428572h-1097.142858A91.696762 91.696762 0 0 0 0-18.285714V667.428571a91.696762 91.696762 0 0 0 91.428571 91.428572h238.860191L445.68381 896h365.714285l115.44381-137.142857H1188.571429a91.696762 91.696762 0 0 0 91.428571-91.428572zM914.285714 347.428571c0 151.990857-122.294857 274.285714-274.285714 274.285715A273.627429 273.627429 0 0 1 365.714286 347.428571c0-151.990857 122.294857-274.285714 274.285714-274.285714S914.285714 195.437714 914.285714 347.428571z"  horiz-adv-x="1292" />
      
      <glyph glyph-name="a-Frame2" unicode="&#58932;" d="M115.2 96c-25.6 0-51.2-19.2-51.2-51.2S83.2 0 115.2 0h793.6c32 0 51.2 19.2 51.2 51.2s-19.2 51.2-51.2 51.2H115.2v-6.4zM140.8 512c-12.8 0-19.2-6.4-19.2-19.2l12.8-211.2c0-6.4 6.4-12.8 12.8-6.4h6.4l204.8 204.8c6.4 6.4 6.4 12.8 0 12.8h-6.4L140.8 512z m294.4-76.8c-32 0-51.2-25.6-51.2-51.2s19.2-51.2 51.2-51.2h473.6c32 0 51.2 25.6 51.2 51.2s-19.2 51.2-51.2 51.2H435.2zM115.2 768c-32 0-51.2-19.2-51.2-51.2s19.2-51.2 51.2-51.2h793.6c32 6.4 51.2 25.6 51.2 51.2S940.8 768 908.8 768H115.2z"  horiz-adv-x="1024" />
      
      <glyph glyph-name="back" unicode="&#58933;" d="M512 171.605333a34.389333 34.389333 0 0 0-24.490667 10.154667l-176.341333 176.341333-0.085333 0.085334A34.56 34.56 0 0 0 299.52 384v2.133333c0 0.298667 0 0.64 0.085333 1.024l0.085334 0.938667c0 0.426667 0.128 0.725333 0.128 1.109333l0.085333 0.426667a33.877333 33.877333 0 0 0 9.728 18.944l1.322667 1.322667 0.213333 0.128 176.213333 176.213333a34.389333 34.389333 0 0 0 24.490667 10.154667c9.216 0 17.92-3.584 24.490667-10.154667a34.389333 34.389333 0 0 0 10.112-24.490667c0-9.216-3.584-17.92-10.112-24.448L417.706667 418.56h272a34.645333 34.645333 0 0 0 0-69.205333H417.877333l118.613334-118.485334a34.389333 34.389333 0 0 0 10.112-24.490666c0-9.216-3.584-17.92-10.154667-24.448a33.749333 33.749333 0 0 0-24.490667-10.368zM515.968-25.6a408.021333 408.021333 0 0 0-289.578667 119.893333 407.722667 407.722667 0 0 0-87.765333 130.133334A405.333333 405.333333 0 0 0 106.368 384a408.021333 408.021333 0 0 0 119.893333 289.578667 407.722667 407.722667 0 0 0 289.621334 119.893333 408.021333 408.021333 0 0 0 289.578666-119.893333 407.722667 407.722667 0 0 0 111.317334-205.397334 34.474667 34.474667 0 0 0-33.792-41.386666h-0.512a34.773333 34.773333 0 0 0-33.792 27.648c-33.066667 156.373333-173.056 269.824-332.928 269.824-91.221333 0-177.066667-35.712-241.450667-100.736a337.92 337.92 0 0 1-98.816-242.304c1.450667-186.154667 154.112-337.578667 340.266667-337.578667 160 0 299.946667 113.536 333.013333 269.994667a34.730667 34.730667 0 0 0 67.882667-14.336 407.722667 407.722667 0 0 0-111.189334-205.013334 407.722667 407.722667 0 0 0-289.493333-119.893333z"  horiz-adv-x="1024" />
      
      <glyph glyph-name="a-Frame1" unicode="&#58935;" d="M529.408 816.184889l2.56-1.877333 426.666667-341.333334a31.971556 31.971556 0 0 0-37.319111-51.882666l-2.673778 1.934222-54.613334 43.747555v-488.106666a31.971556 31.971556 0 0 0-29.013333-31.857778l-3.015111-0.170667H192a32.028444 32.028444 0 0 0-31.857778 28.956445l-0.170666 3.072v488.106666l-54.613334-43.804444a32.028444 32.028444 0 0 0-42.837333 2.56l-2.161778 2.503111a32.028444 32.028444 0 0 0 2.503111 42.780444l2.503111 2.161778 426.666667 341.333334a31.971556 31.971556 0 0 0 37.376 1.877333zM512 748.373333l-288.028444-230.4v-507.335111h149.333333V256a31.971556 31.971556 0 0 0 28.956444 31.857778l3.072 0.113778h213.333334a31.971556 31.971556 0 0 0 31.971555-31.971556v-245.361778h149.333334V517.973333L512 748.373333z m74.638222-524.401777H437.304889v-213.333334h149.333333v213.333334z"  horiz-adv-x="1024" />
      
      <glyph glyph-name="heart" unicode="&#58924;" d="M560.407273 717.032727l38.167272 23.458909C595.549091 743.424 504.599273 893.067636 334.429091 896c-70.423273 0-146.711273-26.391273-222.952727-90.949818C108.497455 799.185455 2.885818 711.168 0 573.253818c0-46.917818 14.661818-96.814545 46.964364-146.711273 123.205818-178.967273 478.208-513.396364 481.140363-513.396363 8.843636-8.843636 20.526545-11.776 32.302546-11.776 11.729455 0 23.458909 5.864727 29.323636 14.661818l475.322182 507.578182 2.932364 2.932363c2.932364 2.932364 49.850182 67.490909 49.850181 161.373091 0 67.490909-29.323636 149.643636-114.408727 220.066909C930.071273 869.608727 853.783273 896 783.36 896c-117.341091 0-211.223273-73.355636-264.052364-152.576v-46.917818c5.864727-8.843636 17.594182-17.640727 26.437819-20.573091 11.729455-2.932364 23.458909 0 32.256 5.864727a59.112727 59.112727 0 0 1 20.526545 26.437818 40.727273 40.727273 0 0 1-5.864727 32.256l-32.256-23.458909 38.167272-23.458909c38.120727 61.579636 108.497455 114.408727 190.650182 111.476364 46.964364 0 102.725818-17.594182 164.305455-67.490909 61.626182-55.761455 76.334545-105.658182 76.334545-152.576 0-61.579636-29.370182-105.611636-29.370182-105.611637L528.104727-28.206545l32.302546-29.323637 29.323636 32.256S231.796364 315.112727 123.205818 476.439273c-26.391273 35.188364-35.188364 67.490909-35.188363 96.814545-2.932364 88.017455 82.152727 164.305455 82.152727 164.305455C234.728727 793.320727 287.511273 808.029091 331.543273 808.029091c108.544 2.932364 187.764364-117.341091 190.696727-114.408727 5.864727-8.843636 17.594182-17.640727 26.391273-20.573091 11.776-2.932364 23.505455 0 32.302545 5.864727a59.112727 59.112727 0 0 1 20.526546 26.437818 40.727273 40.727273 0 0 1-5.864728 32.256l-35.188363-20.526545z"  horiz-adv-x="1117" />
      
      <glyph glyph-name="like_fill" unicode="&#58925;" d="M542.72 810.666667c-74.325333 0-133.376-58.026667-133.376-133.376 0-43.861333-37.888-113.578667-80.042667-148.48-30.72-25.344-98.048-45.226667-200.106666-56.661334l-3.413334-0.426666a68.266667 68.266667 0 0 1-57.173333-67.328L68.266667 29.952l-0.085334-0.256a16.896 16.896 0 0 1 0-3.84l0.085334-3.413333a68.266667 68.266667 0 0 1 68.266666-64.853334l612.010667-0.085333 0.341333-0.085333 2.56-0.085334c25.514667 0 50.602667 7.168 72.448 20.992l4.693334 3.072a133.12 133.12 0 0 1 40.789333 45.226667l1.621333 3.072-1.706666-2.56a66.816 66.816 0 0 1 10.154666 21.674667l74.069334 326.826666 0.768 3.328a65.706667 65.706667 0 0 1 1.194666 14.677334v1.109333l-0.170666-2.474667a132.864 132.864 0 0 1-20.224 81.322667l-2.56 4.010667a134.997333 134.997333 0 0 1-102.4 59.221333l-2.56 0.170667-1.109334 0.170666a62.037333 62.037333 0 0 1-7.509333 0.426667l-145.493333 0.085333 1.877333 8.874667a393.728 393.728 0 0 1-2.304 160.426667l-0.682667 2.56a34.133333 34.133333 0 0 1-0.853333 2.730666l-0.512 1.024-0.682667 2.474667A133.461333 133.461333 0 0 1 542.72 810.666667zM290.133333 315.733333V128a34.133333 34.133333 0 0 0-34.133333-34.133333h-34.133333v256H256a34.133333 34.133333 0 0 0 34.133333-34.133334z"  horiz-adv-x="1024" />
      
      <glyph glyph-name="a-tianmao1" unicode="&#58922;" d="M512.226307-128a519.588272 519.588272 0 0 0-103.159953 10.392789 511.140931 511.140931 0 0 0-183.07692 77.04999 517.335648 517.335648 0 0 0-108.791515 98.859489 514.878239 514.878239 0 0 0-76.691618 126.402941 510.372991 510.372991 0 0 0-37.577869 251.577177 513.239967 513.239967 0 0 0 37.577869 146.932539 511.960067 511.960067 0 0 0 146.062207 195.77353A515.799768 515.799768 0 0 0 312.971449 855.680073a510.270599 510.270599 0 0 0 251.628373 37.577869 513.188771 513.188771 0 0 0 146.932539-37.577869 512.164851 512.164851 0 0 0 225.26243-185.483132 514.007907 514.007907 0 0 0 64.35338-133.97995 508.171563 508.171563 0 0 0 20.376011-99.934605 519.895448 519.895448 0 0 0-7.730597-155.482272 509.809835 509.809835 0 0 0-175.909479-291.868435 516.362924 516.362924 0 0 0-126.402941-76.691618A510.014619 510.014619 0 0 0 512.226307-128z m76.79401 478.170703v-19.864051c0.051196-8.293753-0.76794-16.587506-2.508604-24.727671a80.684907 80.684907 0 0 0-6.655481-18.942523 63.892616 63.892616 0 0 0-40.240061-33.277404 51.042419 51.042419 0 0 0-9.112889-1.843056v-33.072621c8.293753 0.204784 16.53631 1.433488 24.574083 3.583721 11.007141 2.969368 21.348735 8.140165 30.359232 15.154018 5.273189 4.198073 9.983221 9.010497 14.078902 14.334882 4.710033 6.245913 8.703321 13.003786 11.723885 20.171226 3.58372 8.703321 6.297109 17.765014 7.935381 26.980296 2.04784 11.519102 3.020564 23.140595 2.918173 34.813284V466.948794c-1.331096 26.519531-9.932025 47.100326-25.546808 61.179228a72.749526 72.749526 0 0 1-12.850198 9.215281 86.111683 86.111683 0 0 1-15.358802 6.757873 127.836429 127.836429 0 0 1-37.885044 5.836345v-32.407072c7.423421-0.102392 14.74445-1.177508 21.860694-3.122957 6.143521-1.740664 11.92867-4.505249 17.099467-8.191361a44.284546 44.284546 0 0 0 11.928669-12.95259c3.174152-5.426777 5.375581-11.365513 6.450697-17.56023l0.614352-3.481328-58.005076-33.686973v-33.635776l0.153589 0.102392c7.167441 4.300465 43.618998 26.007571 58.312251 33.635776V383.960067l-58.363447-33.891756v-33.686973l0.153588 0.102392c7.167441 4.300465 43.772586 26.109963 58.363447 33.686973z m-270.673287 2.764584c8.293753-17.969798 18.84013-34.864481 31.229564-50.274479a253.625017 253.625017 0 0 1 85.702115-68.244276c14.590862-7.167441 30.103252-12.44063 46.02521-15.819567v33.123817a216.91748 216.91748 0 0 0-67.783513 37.117105 225.364822 225.364822 0 0 0-43.209429 46.588366 239.750899 239.750899 0 0 0-23.498968 42.185509 184.305624 184.305624 0 0 0-8.600929 24.062123h143.348819v32.151093H335.446496V517.479253h131.317757v32.253484h-289.769398v-32.253484H302.32268v-83.654275H162.250405v-32.099897h136.181378a175.909479 175.909479 0 0 0-7.679401-25.700395c-5.631561-14.846842-12.901394-29.079332-21.553519-42.390293a202.429011 202.429011 0 0 0-70.445705-66.196437 217.275852 217.275852 0 0 0-36.502753-16.229134v-32.560661c16.741094 3.481328 32.867836 9.317673 47.919463 17.406643 15.665978 8.293753 30.308036 18.430562 43.567801 30.205644a259.61495 259.61495 0 0 1 64.609361 86.674839z m325.094642 75.00215v-152.410512c-0.051196-7.935381 1.075116-15.870762 3.430133-23.447771 2.099036-6.655481 5.682757-12.747806 10.443985-17.816211 9.624849-10.085613 24.062123-15.205214 42.799862-15.205214h161.779381v154.970313c0.102392 7.679401-0.921528 15.307606-3.07176 22.628635a47.663482 47.663482 0 0 1-4.044485 9.215281 38.755377 38.755377 0 0 1-13.362158 13.925314 47.04913 47.04913 0 0 1-9.573653 4.454052 64.762948 64.762948 0 0 1-11.570298 2.764585 95.429357 95.429357 0 0 1-13.771725 0.921528h-163.008086z m66.350025 53.653415h86.214075v-29.847272h32.099897v29.847272h34.09654v32.253484h-34.09654v36.093185h-32.099897v-36.041989h-86.214075v36.041989h-32.099896v-36.041989h-34.147737v-32.30468h34.198933v-29.847272h32.0487v29.847272z m27.645844-232.941831h-18.737739a133.621578 133.621578 0 0 0-19.09611 1.023921 31.229564 31.229564 0 0 0-13.515746 4.812424 21.758303 21.758303 0 0 0-8.037773 11.109534 60.76966 60.76966 0 0 0-2.662192 19.966442v23.396575h61.998364v-60.2577z m92.459988 0.051196h-61.947168v60.2577h61.947168V248.700217z m-92.56238 90.00258h-61.998365v5.017209c0 27.133884-0.051196 52.834279-0.102392 53.141455h62.100757v-58.158664z m92.511184 0h-61.844776V396.861461h22.628635c6.143521 0.153588 12.287042 0 18.379366-0.563156 2.30382-0.25598 4.607641-0.716744 6.809069-1.433488a15.717174 15.717174 0 0 0 9.317673-7.167441c1.177508-2.04784 2.099036-4.300465 2.662192-6.655481 1.433488-5.119601 2.04784-12.031062 2.047841-21.502323v-20.836775z"  horiz-adv-x="1024" />
      
      <glyph glyph-name="a-weidian1" unicode="&#58916;" d="M435.8144 230.5024c0 13.312 8.9088 17.7152 17.664 17.7152h221.8496c8.8576 0 17.664-8.9088 17.664-17.7152v-106.496c0-8.9088-8.9088-17.7152-17.664-17.7152H453.632c-8.9088 0-17.7152 8.9088-17.7152 17.7152v106.496h-0.1024zM506.7776 753.92c-20.2752-15.872-31.0784-31.1296-31.0784-53.248 0-22.1696 13.312-39.8848 31.0784-53.1968 17.7152-13.312 44.4416-13.312 62.1056 0 17.7152 8.9088 31.0272 31.1296 31.0272 53.248 0 22.1696-13.312 39.8848-31.0272 53.1968a53.2992 53.2992 0 0 1-62.1056 0z m297.216-354.9184V452.1984h-217.3952V509.9008H489.0112v-208.4864H351.488v-239.5136h354.816c39.936 0 71.0144 31.0272 71.0144 71.0144v168.6016h-190.72V399.0016h217.3952z m8.8064 159.744v44.3392c0 8.9088-8.9088 13.312-13.312 13.312H240.6912c-8.9088 0-13.312-8.9088-13.312-13.312v-354.816c0-62.0544-13.312-115.2512-39.8848-141.824-4.4032 0-4.4032 0-4.4032-4.4544v-57.7024c0-8.9088 4.4032-8.9088 13.312-4.4032 128.6144 44.3904 124.2112 239.5136 124.2112 239.5136V536.5248c0 4.352 4.4032 8.8576 13.312 8.8576h456.8576c8.9088 0 14.336-0.1024 17.7152 3.0208l4.3008 10.2912zM512.1024 896c282.7776 0 512-229.2224 512-512s-229.2224-512-512-512-512 229.2224-512 512 229.2224 512 512 512z"  horiz-adv-x="1024" />
      
      <glyph glyph-name="a-alibaba1" unicode="&#58923;" d="M512 896C230.4 896 0 665.6 0 384s230.4-512 512-512 512 230.4 512 512S793.6 896 512 896z m16.0768-647.936c0 19.456 4.864 38.8608 19.456 58.2656 9.728 24.2688 24.2688 43.6736 38.8096 63.0784 19.456 33.9968 77.6704 111.6672 97.0752 160.2048 4.864 9.728 4.864 19.456 4.864 24.2688 0 43.6736-38.8096 58.2656-106.8032 82.5344l-9.728-9.728 24.32-24.2688c-106.8032-24.2688-174.7968-48.5376-252.416-87.3984l9.6768-33.9968-38.8608-48.5376c4.864 0 77.6704-29.1328 145.664 33.9968 0 4.864-4.864 9.728-14.592 14.5408 19.456 0 33.9968-24.2688 33.9968-48.5376h-4.864c0 9.728 0 14.592-4.864 24.2688-53.3504-53.4016-121.344-58.2144-174.7456-33.9456v-63.1296c-29.1328-9.728-72.8064-48.5376-72.8064-82.4832 0-19.456 9.728-24.32 14.592-29.184 58.2144-43.6736 223.2832 14.592 223.2832 14.592-58.2144-38.8608-116.48-67.9424-203.8784-72.8064-116.5312 4.864-131.072 97.0752-77.6704 199.0144 53.4016 101.9904 131.072 194.2016 262.144 247.6032 38.8096 19.456 92.2112 38.8096 145.6128 38.8096 77.6704 0 150.528-29.0816 145.6128-121.344-4.8128-72.8064-82.4832-169.8816-126.208-242.688-19.456-29.184-24.2688-53.4528 9.728-48.5888 111.616 9.728 213.6064 58.2656 310.6816 106.8032-63.1296-53.3504-398.08-262.144-398.08-121.344z"  horiz-adv-x="1024" />
      
      <glyph glyph-name="taobao" unicode="&#58915;" d="M489.244 543.289l30.493-27.921-15.246-16.52h196.972l0.637-45.74-122.607-0.614v-59.096l121.333-1.911v-29.856H580.107l-0.614-106.723c40.641-1.275 53.976 15.883 53.976 15.883l-13.972 27.967 73.046 42.553 38.752-86.38V514.798c-46.353 119.467-242.119 28.604-242.119 28.604l0.046-0.091zM511.454 896C229.012 896 0 666.965 0 384.478 0 102.013 229.012-127 511.477-127c282.51 0 511.522 229.012 511.522 511.477C1022.999 666.965 793.987 896 511.477 896zM256.068 653.312a60.985 60.985 0 1 0 0-122.015 60.985 60.985 0 0 0 0 122.015z m62.26-340.582l-88.975-183-95.3 60.984 125.815 137.262c17.75 22.892 0 50.813 0 50.813l-92.774 80.077 40.687 55.933s44.487-34.315 93.412-82.603c48.901-48.287 17.134-119.466 17.134-119.466z m524.856-91.478S835.561 113.21 730.09 115.758c-105.426 2.548-105.495 0-105.495 0l-30.515-0.023s-17.749 24.803 0.66 61.667c0 0 38.73 6.372 45.079-15.269h44.487s43.19 8.26 46.353 76.231l-60.985-45.738-22.232 45.124s-80.714-64.785-146.773-60.37h-89.612s-58.459 15.246-61.622 92.16v59.733h91.523s-9.557-94.072 44.465-89.611l1.251 120.74H349.434v30.516h137.24l-0.615 60.37-19.707 0.637-55.933-55.296-36.864 33.041 69.268 68.608-1.911 31.153-87.063-80.054-52.725 52.724s69.86 45.125 92.775 151.234l78.12-19.707-12.675-41.3s340.56 124.54 383.75-92.73v-278.3l0.068-0.046z"  horiz-adv-x="1024" />
      
      <glyph glyph-name="addnew" unicode="&#58926;" d="M956.245333 350.293333h-376.106666v-404.096a68.266667 68.266667 0 0 0-136.533334 0V350.293333H67.498667a67.456 67.456 0 1 0 0 134.954667h376.192V821.845333a68.266667 68.266667 0 1 0 136.490666 0v-336.64h376.106667a67.498667 67.498667 0 1 0 0-134.912z"  horiz-adv-x="1025" />
      
      <glyph glyph-name="set" unicode="&#58927;" d="M919.608889 490.382222l-57.230222 8.021334a36.181333 36.181333 0 0 0-27.989334 22.129777 350.321778 350.321778 0 0 1-42.894222 74.524445 36.010667 36.010667 0 0 0-5.176889 35.271111l21.617778 53.475555a35.441778 35.441778 0 0 1-15.132444 44.145778L669.013333 799.459556a35.498667 35.498667 0 0 1-45.795555-8.931556l-35.384889-45.283556a36.295111 36.295111 0 0 0-33.507556-13.312 335.644444 335.644444 0 0 1-85.617777 0 36.295111 36.295111 0 0 0-33.450667 13.312l-35.441778 45.283556a35.441778 35.441778 0 0 1-45.795555 8.931556L230.4 727.950222a35.555556 35.555556 0 0 1-15.189333-44.088889l21.674666-53.475555a36.010667 36.010667 0 0 0-5.176889-35.271111c-17.237333-22.812444-31.744-47.786667-42.894222-74.524445a35.783111 35.783111 0 0 0-28.046222-22.129778l-57.173333-7.964444a35.669333 35.669333 0 0 1-30.72-35.271111v-142.961778c0-17.635556 13.084444-32.711111 30.606222-35.214222l57.230222-7.964445a36.181333 36.181333 0 0 0 27.989333-22.129777c11.264-26.680889 25.713778-51.655111 42.894223-74.524445 7.68-10.126222 10.012444-23.438222 5.176889-35.271111l-21.674667-53.475555a35.441778 35.441778 0 0 1 15.189333-44.088889l123.676445-71.395556c15.416889-8.931556 34.929778-5.12 45.852444 8.874667l35.384889 45.283555a36.295111 36.295111 0 0 0 33.507556 13.312 335.075556 335.075556 0 0 1 85.560888 0 36.295111 36.295111 0 0 0 33.564445-13.312l35.328-45.283555a35.441778 35.441778 0 0 1 45.852444-8.874667l123.676445 71.395556a35.555556 35.555556 0 0 1 15.189333 44.088889l-21.674667 53.475555a36.067556 36.067556 0 0 0 5.176889 35.271111c17.237333 22.869333 31.687111 47.843556 42.894223 74.524445a35.783111 35.783111 0 0 0 27.989333 22.129777l57.230222 7.964445a35.555556 35.555556 0 0 1 30.606222 35.271111V455.168a35.157333 35.157333 0 0 1-30.492444 35.214222z m-408.007111-245.475555a138.922667 138.922667 0 1 0 0 277.845333 138.922667 138.922667 0 0 0 0-277.845333z"  horiz-adv-x="1024" />
      
      <glyph glyph-name="trush" unicode="&#58928;" d="M928.192 752h-192.128V832a32 32 0 0 1-32 32H320a32 32 0 0 1-32-32v-80H95.872a32 32 0 0 1 0-64h33.792l77.888-698.624a96 96 0 0 1 95.36-85.376h418.176a96 96 0 0 1 95.424 85.376L894.464 688h33.664a32 32 0 0 1 0.064 64zM352.064 800h320v-48h-320V800z m400.832-803.584a32 32 0 0 0-31.744-28.416H302.976a32 32 0 0 0-31.808 28.416L194.048 688h636.032l-77.184-691.584zM608 75.072a32 32 0 0 1 32 32v469.76a32 32 0 0 1-64 0v-469.76a32 32 0 0 1 32-32z m-176 0a32 32 0 0 1 32 32v469.76a32 32 0 0 1-64 0v-469.76a32 32 0 0 1 32-32z"  horiz-adv-x="1024" />
      
      <glyph glyph-name="reflesh" unicode="&#58929;" d="M921.472 709.248h-146.304v32.192c0 53.76-43.776 97.536-97.536 97.536H352.64c-53.76 0-97.536-43.776-97.536-97.536v-32.192H108.8a16.256 16.256 0 0 1-16.32-16.256v-32.512c0-8.96 7.296-16.256 16.32-16.256h48.704v-617.792c0-53.76 43.84-97.472 97.536-97.472h520.128c53.76 0 97.536 43.776 97.536 97.472V644.288h48.768a16.256 16.256 0 0 1 16.256 16.192v32.512a16.256 16.256 0 0 1-16.256 16.256z m-601.408 32.192c0 17.92 14.528 32.512 32.512 32.512h325.12c17.92 0 32.448-14.592 32.448-32.512v-32.192H320.064v32.192z m487.68-715.008a32.576 32.576 0 0 0-32.576-32.448H255.04a32.576 32.576 0 0 0-32.512 32.448V644.096h32.512l520.128-0.192 32.512 0.192v-617.6zM515.2 530.688a16.256 16.256 0 0 1-24.448 14.08l-73.088-42.24a16.256 16.256 0 0 1 0-28.16l73.088-42.24a16.32 16.32 0 0 1 24.384 14.144v9.088A130.24 130.24 0 0 0 624.64 260.288a16.32 16.32 0 0 1 4.352-21.376l26.24-19.456c7.68-5.696 18.56-3.52 23.616 4.544a195.328 195.328 0 0 1-163.712 296.32v10.432z m97.472-352.96l-73.152 42.24a16.32 16.32 0 0 1-24.32-14.144v-10.496h-3.328A130.176 130.176 0 0 0 400.128 391.68a16.256 16.256 0 0 1-4.096 21.312l-26.112 19.776a16.192 16.192 0 0 1-23.488-4.288A195.2 195.2 0 0 1 512 130.304h3.2v-8.96c0-12.48 13.44-20.288 24.32-14.016l73.152 42.24a16.32 16.32 0 0 1 0 28.16z"  horiz-adv-x="1024" />
      
      <glyph glyph-name="delicon" unicode="&#58930;" d="M923.456 265.6c-19.2 0-34.816-15.552-34.816-34.688v-66.24H255.232V762.496H381.44A34.816 34.816 0 0 1 381.44 832H220.48c-19.2 0-34.752-15.616-34.752-34.752v-124.416H98.752c-19.2 0-34.752-15.552-34.752-34.752v-667.328c0-19.2 15.616-34.752 34.752-34.752h702.976c19.2 0 34.752 15.616 34.752 34.752v124.416h86.976c19.2 0 34.752 15.552 34.752 34.752v100.992c0 19.2-15.616 34.752-34.752 34.752v-0.064z m-156.48-260.096H133.568V603.328h52.16v-473.408c0-19.2 15.552-34.752 34.752-34.752h546.496v-89.664z m-292.928 639.36c-19.2 0-34.752-15.616-34.752-34.752V302.72c0-19.2 15.552-34.752 34.752-34.752h386.816c19.2 0 34.752 15.616 34.752 34.752V610.112a34.816 34.816 0 0 1-69.568 0v-272.64H508.8v272.64a34.816 34.816 0 0 1-34.752 34.752zM409.664 736.768a34.816 34.816 0 0 1 0-69.504h254.272l1.92-0.064 1.856 0.064h257.536a34.816 34.816 0 0 1 0 69.504h-224.64v49.664a34.816 34.816 0 0 1-69.568 0v-49.664H409.6h0.064z m223.168-262.144V610.112a34.816 34.816 0 0 1-69.568 0v-135.488a34.816 34.816 0 0 1 69.568 0z m138.816 0V610.112a34.816 34.816 0 0 1-69.568 0v-135.488a34.816 34.816 0 0 1 69.568 0z"  horiz-adv-x="1024" />
      
      <glyph glyph-name="filter" unicode="&#58917;" d="M799.829333 580.053333c4.778667 4.778667 10.154667 10.154667 13.653334 16.298667 26.112 32.469333 29.226667 81.621333 7.253333 117.333333-22.058667 35.84-54.826667 54.058667-97.322667 54.058667H197.333333c-10.154667 0-20.693333 0-29.866666-2.901333a106.666667 106.666667 0 0 1-57.898667-37.376 107.008 107.008 0 0 1-23.509333-66.304c0-30.72 11.733333-58.026667 33.024-76.8a16183.296 16183.296 0 0 0 200.533333-198.186667v-215.68l0.085333-1.834667c3.541333-28.373333 25.130667-43.904 51.2-32.682666l0.426667 0.213333c14.208 7.082667 22.314667 21.333333 22.314667 39.04v221.738667c0 14.933333-4.608 27.136-13.738667 36.266666-32.64 32.64-64.853333 66.56-95.872 99.413334-32.853333 34.901333-66.133333 69.376-99.882667 103.424l-1.706666 1.706666-2.048 0.981334a19.370667 19.370667 0 0 0-2.346667 2.816c-0.853333 1.109333-1.706667 2.176-2.645333 3.2-5.973333 7.68-7.253333 14.208-4.437334 23.04 4.821333 10.922667 14.592 23.552 26.410667 23.552h530.773333c6.4 0 12.672-3.498667 17.493334-9.813334a33.578667 33.578667 0 0 0 6.058666-28.586666c-1.28-5.333333-3.498667-7.68-10.112-14.336a18378.538667 18378.538667 0 0 1-216.832-214.442667l-0.426666-0.426667c-7.424-7.466667-16.042667-18.346667-16.042667-36.266666v-372.693334c0-4.608 0-17.493333 9.386667-27.818666 0 0 2.944-6.485333 15.274666-11.178667 15.274667-5.802667 30.208 0.853333 30.208 0.853333l3.84 2.858667c15.317333 11.52 15.317333 29.312 15.317334 40.021333V372.053333a4830.293333 4830.293333 0 0 0 111.061333 106.24c37.333333 34.986667 72.533333 67.968 106.453333 101.802667z m81.621334-477.525333h-200.533334a33.152 33.152 0 0 1-33.450666-33.450667v-9.472c0-20.906667 17.066667-33.450667 33.493333-33.450666h200.533333a33.152 33.152 0 0 1 33.450667 33.450666v9.472c0 20.053333-13.44 33.450667-33.493333 33.450667z m0 120.32h-200.533334a33.152 33.152 0 0 1-33.450666-33.493333v-7.04c0-20.992 17.066667-33.493333 33.493333-33.493334h200.533333a33.194667 33.194667 0 0 1 33.450667 33.493334v7.04a33.109333 33.109333 0 0 1-33.493333 33.493333z m0 115.626667h-200.533334a33.152 33.152 0 0 1-33.450666-33.536v-4.693334c0-20.906667 17.066667-33.493333 33.493333-33.493333h200.533333a33.194667 33.194667 0 0 1 33.450667 33.493333v4.693334c0 20.053333-13.44 33.493333-33.493333 33.493333z"  horiz-adv-x="1024" />
      
      <glyph glyph-name="close" unicode="&#58918;" d="M874.251262 746.080353A509.072468 509.072468 0 0 1 512.12227 895.998293a508.828659 508.828659 0 0 1-362.05585-149.942321A508.58485 508.58485 0 0 1 0.002194 384.000122a508.755516 508.755516 0 0 1 149.942322-362.128992A508.901802 508.901802 0 0 1 512.000366-127.99805a509.194372 509.194372 0 0 1 362.275277 149.991084c199.630525 199.606144 199.630525 524.432413 0 724.111699z m-41.398709-682.664229A450.997246 450.997246 0 0 0 512.000366-69.459592 450.704676 450.704676 0 0 0 191.391987 63.29422 450.558391 450.558391 0 0 0 58.589414 384.000122c0 121.14852 47.176974 235.031542 132.851335 320.65714a450.582772 450.582772 0 0 0 320.65714 132.778193A450.8022 450.8022 0 0 0 832.852553 704.681643c176.810035-176.834416 176.810035-464.504246 0-641.2899zM714.99545 586.897683a29.257038 29.257038 0 0 1-41.447471 0l-161.523232-161.498852-161.547614 161.498852a29.281419 29.281419 0 0 1-41.42309-41.398709l161.547613-161.523233-161.547613-161.498852a29.257038 29.257038 0 1 1 41.447471-41.42309L512.000366 342.577032l161.547613-161.523233a29.257038 29.257038 0 1 1 41.42309 41.42309L553.447837 383.975741l161.547613 161.523233a29.257038 29.257038 0 0 1 0 41.398709z"  horiz-adv-x="1024" />
      
      <glyph glyph-name="weight" unicode="&#58919;" d="M334.549333 588.8a204.8 204.8 0 1 0 354.816 0h163.754667a51.2 51.2 0 0 0 50.346667-42.197333l109.738666-614.4A51.2 51.2 0 0 0 962.816-128H61.141333A51.2 51.2 0 0 0 10.709333-67.84l109.738667 614.4a51.2 51.2 0 0 0 50.346667 42.197333h163.754666z m-122.453333-102.4l-91.434667-512H903.253333l-91.434666 512H212.053333z m299.861333 307.2a102.4 102.4 0 1 1 0-204.8 102.4 102.4 0 0 1 0 204.8z"  horiz-adv-x="1024" />
      
      <glyph glyph-name="talk" unicode="&#58920;" d="M86.738211 96.947363c-13.182097 22.396766-21.82085 37.498586-26.108231 45.497432a511.926091 511.926091 0 1 0 188.516783-197.731453l-24.124517 14.141958-125.22992-34.171066a38.394457 38.394457 0 0 0-47.161191 47.161191l34.107076 125.101938z m78.388682-4.479353l-20.733006-76.021025 75.957034 20.733007a38.266475 38.266475 0 0 0 29.43575-3.839446c12.990125-7.55091 25.916258-15.10182 38.842392-22.780711a435.137177 435.137177 0 1 1-160.360848 168.167721c4.479353-8.318799 15.485764-27.388046 32.827261-56.631824a38.394457 38.394457 0 0 0 4.031417-29.691713z m175.142714 84.851749a38.394457 38.394457 0 1 0 49.080914 59.063473A190.948432 190.948432 0 0 1 512.020811 192.101625c45.433441 0 88.371241 15.805718 122.606298 44.281607a38.394457 38.394457 0 1 0 49.080914-59.063473A267.801336 267.801336 0 0 0 512.020811 115.312712a267.801336 267.801336 0 0 0-171.751204 62.071038z"  horiz-adv-x="1024" />
      
      <glyph glyph-name="history" unicode="&#58921;" d="M1021.76 425.088a464.32 464.32 0 0 1-49.6 171.584 465.28 465.28 0 0 1-271.808 230.912 464.384 464.384 0 0 1-355.52-28.928 467.52 467.52 0 0 1-140.352-110.464 461.632 461.632 0 0 1-90.432-161.408 463.36 463.36 0 0 1-15.36-223.68l-39.232 30.016a36.608 36.608 0 0 1-44.48-58.112l110.976-84.992a36.544 36.544 0 0 1 51.328 6.784L262.4 307.84a36.608 36.608 0 0 1-58.112 44.48l-32.512-42.496a390.72 390.72 0 0 0 11.904 194.56A390.4 390.4 0 0 0 378.24 733.44a390.336 390.336 0 0 0 299.648 24.384 393.344 393.344 0 0 0 253.568-494.272 392.96 392.96 0 0 0-472.576-259.84 36.544 36.544 0 1 1-18.432-70.784c39.232-10.24 78.528-15.104 117.312-15.104a466.368 466.368 0 0 1 464 507.2zM559.36 700.608a36.608 36.608 0 0 1-36.608-36.608v-308.352c0-12.992 6.912-25.024 17.984-31.552l220.032-129.344a36.608 36.608 0 0 1 50.048 12.864 36.672 36.672 0 0 1-12.992 50.112L595.84 376.512V664.128a36.352 36.352 0 0 1-36.48 36.48z"  horiz-adv-x="1024" />
      
      <glyph glyph-name="image" unicode="&#58910;" d="M943.36 832.128H78.592c-20.8 0-40.832-8.576-55.552-23.808-14.72-15.232-23.04-35.904-23.04-57.472V19.2c0-21.568 8.32-42.24 23.04-57.472 14.72-15.232 34.752-23.808 55.552-23.808H943.36c20.864 0 40.832 8.576 55.552 23.808 14.72 15.232 23.04 35.904 23.04 57.472V750.848c0 21.568-8.32 42.24-23.04 57.472a77.312 77.312 0 0 1-55.552 23.808zM78.592 750.848H943.36V19.2H78.592V750.848zM383.232 544.64a95.808 95.808 0 1 0-191.616 0 95.808 95.808 0 0 0 191.616 0zM771.584 512.768l58.752-50.688-249.216-214.976a45.12 45.12 0 0 0-29.376-10.496 45.12 45.12 0 0 0-29.376 10.496L385.6 365.12l-199.104-171.712-58.752 50.624 228.48 197.12a45.12 45.12 0 0 0 29.376 10.432c11.008 0 21.568-3.776 29.376-10.496L551.68 323.2l219.84 189.632z"  horiz-adv-x="1024" />
      
      <glyph glyph-name="like" unicode="&#58911;" d="M542.72 810.715429A131.876571 131.876571 0 0 1 409.307429 677.302857c0-43.885714-37.961143-113.590857-80.091429-148.406857-30.72-25.380571-98.011429-45.202286-200.045714-56.685714L125.805714 471.771429a68.242286 68.242286 0 0 1-57.270857-67.291429l-0.219428-374.491429-0.073143-0.219428a16.822857 16.822857 0 0 1 0-3.876572l0.073143-3.364571a68.242286 68.242286 0 0 1 68.242285-64.877714l612.059429-0.146286h0.365714a135.094857 135.094857 0 0 1 74.971429 20.918857l4.681143 3.072c16.896 11.702857 30.866286 27.209143 40.813714 45.202286l1.609143 3.072-1.682286-2.486857a66.998857 66.998857 0 0 1 10.093714 21.577143l74.093715 326.948571 0.731428 3.218286a65.974857 65.974857 0 0 1 1.243429 14.628571v1.170286l-0.146286-2.486857c2.194286 28.525714-4.900571 57.051429-20.260571 81.261714l-2.56 4.096a135.021714 135.021714 0 0 1-102.326858 59.245714l-2.706285 0.073143-1.024 0.146286a61.878857 61.878857 0 0 1-7.533715 0.512L673.645714 537.746286l1.828572 8.850285a393.728 393.728 0 0 1-2.267429 160.402286l-0.731428 2.633143a34.084571 34.084571 0 0 1-0.950858 2.633143l-0.438857 1.097143-0.731428 2.413714A133.412571 133.412571 0 0 1 542.72 810.715429z m0-68.242286a65.097143 65.097143 0 0 0 62.537143-47.323429l1.462857-5.851428 0.731429-1.755429-1.024 4.754286a323.730286 323.730286 0 0 0-10.093715-177.444572l-0.731428-2.340571a34.157714 34.157714 0 0 1 32.914285-43.008l190.171429-0.146286 1.609143-0.219428 2.413714-0.219429a66.925714 66.925714 0 0 0 64.804572-67.364571l-0.292572-6.875429 0.073143-2.56-73.801143-325.705143-1.097143-1.755428-1.243428-2.194286a65.316571 65.316571 0 0 0-23.552-26.331429l-3.730286-2.194285a66.779429 66.779429 0 0 0-28.16-8.192h-4.169143l-614.985143 0.146285 0.219429 378.514286c114.249143 12.8 192.292571 35.84 235.958857 71.826286 55.442286 45.860571 102.4 130.633143 104.813714 195.876571V677.302857a63.634286 63.634286 0 0 0 65.097143 65.097143zM290.157714 315.757714V128a34.157714 34.157714 0 0 0-34.157714-34.157714h-34.157714v256H256a34.157714 34.157714 0 0 0 34.157714-34.084572z"  horiz-adv-x="1024" />
      
      <glyph glyph-name="video" unicode="&#58912;" d="M663.168 3.584H104.832C47.04 3.584 0 53.888 0 115.712V656.384c0 61.824 47.04 112.128 104.832 112.128h558.336c57.792 0 104.832-50.304 104.832-112.128v-540.672c0-61.824-47.04-112.128-104.832-112.128zM104.832 680.896c-12.672 0-22.976-11.008-22.976-24.512v-540.672c0-13.568 10.304-24.576 22.976-24.576h558.336c12.672 0 22.976 11.008 22.976 24.576V656.384c0 13.504-10.304 24.512-22.976 24.512H104.832zM955.584 131.072a76.16 76.16 0 0 0-46.912 15.488l-196.608 154.496 72.064 63.68 134.848-105.92V513.28l-142.912-112.256L704 464.704l204.672 160.768c19.84 15.616 48.96 19.84 74.048 10.88 25.088-9.088 41.28-29.632 41.28-52.416v-395.84c0-22.784-16.192-43.328-41.28-52.352a80.064 80.064 0 0 0-27.136-4.736zM160.64 577.28h126.72c21.76 0 32.64-10.624 32.64-31.872 0-21.248-10.88-31.872-32.64-31.872H160.64c-21.76 0-32.64 10.624-32.64 31.872 0 21.248 10.88 31.872 32.64 31.872zM480 577.28c21.312 0 32-10.624 32-31.872 0-21.248-10.688-31.872-32-31.872-21.312 0-32 10.624-32 31.872 0 21.248 10.688 31.872 32 31.872z"  horiz-adv-x="1024" />
      
      <glyph glyph-name="look" unicode="&#58913;" d="M510.976 503.744a170.304 170.304 0 1 1 0-340.608 170.304 170.304 0 0 1 0 340.608z m0-68.096a102.208 102.208 0 1 0 0-204.416 102.208 102.208 0 0 0 0 204.416zM510.976 691.136c-123.264 0-234.688-51.84-322.432-137.28-71.552-69.696-120.448-157.44-120.448-213.632v-13.568c0-56.128 48.896-144 120.448-213.632 87.68-85.44 199.168-137.28 322.432-137.28 123.392 0 234.752 51.2 322.112 135.68 71.68 69.44 120.256 157.056 120.704 214.912v13.888c-0.448 58.24-49.024 145.792-120.704 215.232-87.36 84.48-198.784 135.68-322.112 135.68z m0-68.16c104.448 0 199.424-43.52 274.752-116.48 59.712-57.92 99.648-129.92 99.968-166.528v-13.376c-0.32-36.288-40.256-108.288-99.968-166.144-75.328-72.96-170.304-116.544-274.752-116.544-104.128 0-199.168 44.16-274.88 117.952-59.648 58.048-99.84 130.24-99.84 164.736v13.632c0 34.56 40.192 106.752 99.84 164.8 75.712 73.792 170.752 117.952 274.88 117.952zM511.04 793.728a34.048 34.048 0 0 0 33.92-31.488l0.128-2.56v-102.656a34.048 34.048 0 0 0-68.032-2.56l-0.128 2.56V759.68a34.048 34.048 0 0 0 34.112 34.048zM720 718.72a34.112 34.112 0 0 0 60.224-31.68l-1.28-2.368-51.264-88.896a34.048 34.048 0 0 0-60.288 31.744l1.28 2.304 51.328 88.96z m-464.448 12.48a34.048 34.048 0 0 0 45.056-10.24l1.472-2.24 51.328-88.896a34.048 34.048 0 0 0-57.6-36.288L294.4 595.776l-51.328 88.896a34.048 34.048 0 0 0 12.416 46.528z"  horiz-adv-x="1024" />
      
      <glyph glyph-name="language" unicode="&#58908;" d="M98.583649 467.874833a163.048579 163.048579 0 0 0-22.714162 1.768726 33.791969 33.791969 0 0 0-22.388343 13.125806 34.39706 34.39706 0 0 0 6.423267 47.895229 33.652333 33.652333 0 0 0 25.041432 6.655994c18.711256-2.559998 29.602882-0.60509 36.305421 6.609448 11.357081 11.962171 14.429078 24.994886 18.385438 41.425417 6.050904 25.36725 14.382532 60.043582 58.461038 79.685746 28.625429 12.706898 54.737405 13.451624 77.591202 2.094544 18.897437-9.309082 31.930153-25.134523 43.473415-39.005056 12.939625-15.639259 24.110524-29.090883 41.425417-33.698878 43.194143-11.450171 61.439944-5.445813 68.468301-0.930909 2.513452 1.629089 10.1469 6.562903 13.49817 26.065431 1.675635 9.588355 1.256726 20.852345-14.289442 32.302516a92.485734 92.485734 0 0 1-31.371607 14.056715c-31.511244 8.191993-54.17886 27.647975-67.583939 57.716311-10.053809 22.62107-13.172352 47.662502-15.871986 69.771573-0.744727 5.725086-1.396362 11.170899-2.141089 16.383985a34.443605 34.443605 0 0 0 15.871986 34.722878 33.652333 33.652333 0 0 0 51.060317-24.669069c0.930908-6.004358 1.629089-12.101807 2.327271-17.966529 6.562903-52.968679 13.870533-64.32576 32.16288-69.4923 19.269801-4.607996 37.515602-12.753443 53.806496-24.110524 34.443605-24.575978 49.663955-60.183218 42.775234-100.305363-5.585449-32.581789-20.340345-56.785403-43.613051-71.912662-29.509791-19.083619-69.4923-21.643617-122.228253-7.679993-38.260329 10.1469-60.229763 36.631239-76.241385 56.040676-7.91272 9.54181-15.359986 18.525074-21.317799 21.503981-1.535999 0.744727-6.19054 3.025452-20.479981-3.304725-12.939625-5.818177-14.70835-11.310535-20.014527-33.326515-4.701087-19.921436-11.217444-47.197048-35.048696-72.378116-22.714161-24.157069-51.106863-29.044337-71.773025-29.044337zM400.291011 665.227381zM921.134174 244.363763c-57.62322 0-100.258818 17.268348-126.92934 51.572317-20.666163 26.48434-30.161427 62.417398-27.601429 103.982451a229.934336 229.934336 0 0 0 9.495264 53.015225 37.748329 37.748329 0 0 0 1.070544 2.83927c5.07345 11.822535 20.759254 51.479226 10.239991 66.327212-3.444361 4.933814-12.38108 6.842176-30.440699 9.54181-16.94253 2.653088-37.934511 5.911267-58.414493 17.221802-59.019583 32.581789-85.597013 114.734441-81.26829 250.972863a34.303969 34.303969 0 0 0 10.705445 23.784706 33.698878 33.698878 0 0 0 47.848684-1.535999 34.350514 34.350514 0 0 0 9.169446-24.482887c-3.35127-103.516997 13.032715-170.588936 46.033413-188.881283 9.960718-5.445813 22.667616-7.447266 36.11924-9.541809 24.436341-3.770178 54.877041-8.471265 75.403568-37.422512 21.969435-31.185426 21.131617-75.403568-2.606543-131.490789-5.306177-17.687257-13.49817-65.53594 7.540356-92.346098 15.639259-19.967982 47.243593-28.159974 93.882097-24.436342a33.652333 33.652333 0 0 0 24.389796-8.285083 34.257423 34.257423 0 0 0-19.083619-59.810855c-8.750537-0.698181-17.268348-1.023999-25.506886-1.023999zM511.348364-127.999535a511.999535 511.999535 0 1 0 1.303272 1023.99907 511.999535 511.999535 0 0 0-1.303272-1023.99907z m0 958.230402a444.601778 444.601778 0 1 1 314.367714-130.234063 441.715962 441.715962 0 0 1-314.367714 130.234063zM713.913998-34.815619a32.023244 32.023244 0 0 0-8.750537 1.163635 396.706548 396.706548 0 0 0-64.465396 25.413795c-19.735255 10.007264-35.560695 20.852345-47.103957 32.302516-21.690162 21.457435-25.413795 42.216689-24.529433 56.273404 0.139636 7.773084 2.280725 37.562148 24.715614 76.148294a54.132314 54.132314 0 0 1-11.403626 68.980301c-6.376721 5.352722-12.101807 7.819629-17.175257 7.354175-8.51781-0.837817-19.921436-9.402173-31.511244-23.551979-9.681446-16.663258-20.945436-32.488698-33.605788-47.243593-31.04579-36.11924-64.32576-57.250857-98.81591-63.022488-25.181068-4.189087-63.767215-1.629089-103.935905 34.024696a30.673427 30.673427 0 0 0-3.677088 3.816724 290.071009 290.071009 0 0 1-39.005055 38.772328c-20.666163 16.989075-52.45668 38.167238-86.574467 42.542507-25.693068 3.258179-49.291592-3.258179-72.145389-20.014527a31.930153 31.930153 0 0 0-42.961415 5.259632 27.880702 27.880702 0 0 0 5.492358 40.68069c36.072694 26.391249 75.869022 37.003603 118.085711 31.511244 85.82974-11.170899 152.343134-87.039921 164.491487-101.701726 17.035621-14.568714 33.326515-20.386891 49.617409-17.687256 19.083619 3.118543 40.261782 17.501075 61.253763 41.658143 10.891626 12.567261 20.479981 26.065431 28.671974 40.354873a29.044337 29.044337 0 0 0 2.792724 4.189087c23.272706 29.370155 48.733047 45.567959 75.682841 48.127956 22.434889 2.141089 44.54396-5.306177 63.953396-21.550526 20.479981-17.268348 33.978151-40.773781 38.260329-66.420303a111.243535 111.243535 0 0 0-13.823987-74.007205c-16.477076-28.392701-17.128712-48.546865-17.128712-48.733047 0-0.930908 0-1.908362-0.093091-2.83927-0.372363-4.654541 7.214539-17.594166 38.772328-33.791969 17.175257-8.610901 35.141786-15.732349 53.666861-21.271254a30.53379 30.53379 0 0 0 17.221802-12.148352 27.741066 27.741066 0 0 0-5.818176-37.701784 31.697426 31.697426 0 0 0-20.154164-6.981812v0.093091z"  horiz-adv-x="1024" />
      
      <glyph glyph-name="coin" unicode="&#58909;" d="M512 768a378.88 378.88 0 0 0 160.023273-36.631273v-59.392h182.923636A446.976 446.976 0 0 1 512 832.046545a446.976 446.976 0 0 1-342.993455-160.023272h89.553455A382.277818 382.277818 0 0 0 512 768z m0-768a378.88 378.88 0 0 0-160.023273 36.631273v59.392h-182.923636A446.929455 446.929455 0 0 1 512-64a446.929455 446.929455 0 0 1 342.900364 160.023273h-89.506909A381.905455 381.905455 0 0 0 512 0z m128 416.023273a31.976727 31.976727 0 1 1 0 63.953454h-79.685818l-1.024 1.117091 102.4 102.4A33.512727 33.512727 0 0 1 614.4 630.784L512 528.337455 409.6 630.690909a33.512727 33.512727 0 0 1-47.290182-47.290182l102.4-102.4-1.024-1.070545H384a31.976727 31.976727 0 1 1 0-63.953455h96.023273v-64.046545H384a31.976727 31.976727 0 1 1 0-63.953455h96.023273v-128a31.976727 31.976727 0 1 1 63.953454 0v128h96.023273a31.976727 31.976727 0 1 1 0 63.953455h-96.023273v64.046545h96.023273z m352.023273-128c0 59.578182-40.96 109.149091-96.023273 123.438545V534.155636c8.843636-5.538909 16.197818-13.125818 21.643636-22.155636h69.864728a128.046545 128.046545 0 0 1-91.508364 91.461818v4.561455a31.976727 31.976727 0 1 1-64 0v-4.561455a127.720727 127.720727 0 0 1-96.023273-123.438545c0-59.578182 40.96-109.195636 96.023273-123.485091v-122.693818c-8.843636 5.585455-16.290909 13.172364-21.643636 22.155636H740.538182a128.139636 128.139636 0 0 1 91.508363-91.508364v-4.514909a31.976727 31.976727 0 1 1 64 0v4.514909a127.813818 127.813818 0 0 1 96.023273 123.485091z m-191.488 191.953454c0 23.133091 12.986182 42.542545 31.464727 53.573818v-107.194181a62.743273 62.743273 0 0 0-31.511273 53.620363z m95.464727-245.620363v107.194181c18.478545-11.031273 31.511273-30.440727 31.511273-53.527272 0-23.133091-13.032727-42.542545-31.511273-53.666909zM192 159.976727c43.473455 0 81.733818 38.120727 104.820364 96.023273H230.074182c-10.705455-19.921455-23.738182-32.023273-38.074182-32.023273-20.852364 0-39.237818 25.367273-50.874182 64.046546h50.874182a31.976727 31.976727 0 1 1 0 63.953454H129.256727a400.290909 400.290909 0 0 0 0 64.046546h62.743273a31.976727 31.976727 0 1 1 0 63.953454H141.125818c11.729455 38.679273 30.021818 64.046545 50.874182 64.046546 14.336 0 27.368727-12.194909 38.074182-32.023273h66.746182C273.687273 569.902545 235.52 608.023273 192 608.023273c-50.967273 0-94.673455-52.596364-115.2-128h-12.8a31.976727 31.976727 0 1 1 0-64.046546h1.861818c-0.930909-10.519273-1.861818-21.038545-1.861818-31.976727 0-10.938182 0.930909-21.410909 1.861818-32.023273h-1.861818a31.976727 31.976727 0 1 1 0-63.953454h12.8c20.526545-75.543273 64.232727-128 115.2-128z"  horiz-adv-x="1024" />
      
      <glyph glyph-name="collect" unicode="&#58907;" d="M933.536 743.68a307.68 307.68 0 0 1-421.824 9.28 307.68 307.68 0 0 1-421.856-9.28 301.28 301.28 0 0 1 0-428.864l353.408-350.208a95.968 95.968 0 0 1 136.864 0l353.408 349.888a301.216 301.216 0 0 1 0 429.216z m-45.728-383.776L534.4 9.696a32 32 0 0 0-45.44 0L135.296 359.904a237.952 237.952 0 0 0 0 338.72 242.752 242.752 0 0 0 332.928 5.44l43.52-37.44 43.168 37.44a242.752 242.752 0 0 0 332.928-7.04 237.952 237.952 0 0 0 0-337.12zM295.872 672.064a135.936 135.936 0 0 1-135.936-135.936 16 16 0 1 1 32 0 103.936 103.936 0 0 0 103.936 103.968 16 16 0 0 1 0 31.968z"  horiz-adv-x="1024" />
      
    </font>
</defs>
</svg>
